Give the life to this torrent: Чудо-женщина / Wonder Woman (2017) TС-AVC | D | Звук TS! After your Download, don't forget to Seed!

"Чудо-женщина / Wonder Woman (2017) TС-AVC | D | Звук TS"

Hash: 69e1a8fb1b9af121a005b0226102d44951fc1e1f

Size: 1.9 GB
Age: 15/06/2017
Files: 1
Seeds: 4734
Leeches: 362
Verified: no
Downloads: 5
We searched for this here: Rutor
Torrent description Torrent found on:
Информация о фильме Название: Чудо-женщина Оригинальное название: Wonder Woman Год выхода: 2017 Жанр: фантастика, фэнтези, боевик, приключения Режиссер: Пэтти Дженкинс В ролях: Галь Гадот, Робин Райт, Дэвид Тьюлис, Конни Нильсен, Крис Пайн, Елена Анайя, Люси Дэвис, Юэн Бремнер, Даутцен Крёз, Дэнни Хьюстон О фильме:
Перед тем как стать Чудо-Женщиной, она была Дианой — принцессой амазонок, обученной быть непобедимой воительницей. И когда на берегах ограждённого от внешнего мира райского острова, который служил ей родиной, терпит крушение американский пилот и рассказывает о серьёзном конфликте, бушующем во внешнем мире, Диана покидает свой дом, чтобы справиться с этой угрозой. И там, сражаясь бок о бок с человеком в войне за мир, Диана обнаружит всю полноту своей власти… и своё истинное предназначение. Страна: США Студия: фантастика, фэнтези, боевик, приключения Продолжительность: 02:10:35 Перевод: Дублированный
Автор сведения и чистки звука DENZEL519 Файл Кодек: H.264 Качество: TС-AVC Видео: AVC, 720x312 (2.35:1), 23.976 fps ~ 1596 Kbps Звук:
AC3, 48 KHz 2 ch ~ 384 Kb/s (русский)
AC3, 48 KHz 2 ch ~ 128 Kb/s (английский) Субтитры: корейские (неотключаемые) MI:
Общее
Уникальный идентификатор : 177737863406375229893193757162979598186 (0x85B7113D19CFD31F99ADCB028C0A1F6A)
Полное имя : Q:TorFWonder.Woman.2017.TC.mkv
Формат : Matroska
Версия формата : Version 4 / Version 2
Размер файла : 1,90 Гбайт
Продолжительность : 2 ч. 10 м.
Общий поток : 2083 Кбит/сек
Дата кодирования : UTC 2017-06-14 22:54:36
Программа кодирования : mkvmerge v12.0.0 ('Trust / Lust') 64bit
Библиотека кодирования : libebml v1.3.4 + libmatroska v1.4.5
DURATION : 02:08:32.640000000
NUMBER_OF_FRAMES : 241020
NUMBER_OF_BYTES : 123402240
_STATISTICS_WRITING_APP : mkvmerge v12.0.0 ('Trust / Lust') 64bit
_STATISTICS_WRITING_DATE_UTC : 2017-06-14 22:54:36
_STATISTICS_TAGS : BPS DURATION NUMBER_OF_FRAMES NUMBER_OF_BYTES
Видео
Идентификатор : 2
Формат : AVC
Формат/Информация : Advanced Video Codec
Профиль формата : [email protected]
Параметр CABAC формата : Да
Параметр ReFrames формата : 4 кадра
Идентификатор кодека : V_MPEG4/ISO/AVC
Продолжительность : 2 ч. 10 м.
Битрейт : 1596 Кбит/сек
Ширина : 720 пикселей
Высота : 312 пикселей
Соотношение сторон : 2,35:1
Частота кадров : 23,976 кадра/сек
Цветовое пространство : YUV
Субдискретизация насыщенности : 4:2:0
Битовая глубина : 8 бит
Тип развёртки : Прогрессивная
Бит/(Пиксели*Кадры) : 0.296
Размер потока : 1,40 Гбайт (73%)
Библиотека кодирования : x264 core 148 r2744 b97ae06
Настройки программы : cabac=1 / ref=3 / deblock=1:3:1 / analyse=0x3:0x113 / me=hex / subme=7 / psy=1 / psy_rd=1.00:0.15 / mixed_ref=1 / me_range=16 / chroma_me=1 / trellis=1 / 8x8dct=1 / cqm=0 / deadzone=21,11 / fast_pskip=1 / chroma_qp_offset=-3 / threads=10 / lookahead_threads=1 / sliced_threads=0 / nr=0 / decimate=1 / interlaced=0 / bluray_compat=0 / constrained_intra=0 / bframes=3 / b_pyramid=2 / b_adapt=1 / b_bias=0 / direct=1 / weightb=1 / open_gop=0 / weightp=2 / keyint=240 / keyint_min=23 / scenecut=40 / intra_refresh=0 / rc_lookahead=40 / rc=2pass / mbtree=1 / bitrate=1596 / ratetol=1.0 / qcomp=0.60 / qpmin=0 / qpmax=69 / qpstep=4 / cplxblur=20.0 / qblur=0.5 / vbv_maxrate=62500 / vbv_bufsize=78125 / nal_hrd=none / filler=0 / ip_ratio=1.40 / aq=1:1.00
Default : Да
Forced : Нет
Коэффициенты матрицы : BT.709-5, BT.1361, IEC 61966-2-4 709, SMPTE RP177
Аудио #1
Идентификатор : 1
Формат : AC-3
Формат/Информация : Audio Coding 3
Расширение режима : CM (complete main)
Идентификатор кодека : A_AC3
Продолжительность : 2 ч. 10 м.
Вид битрейта : Постоянный
Битрейт : 384 Кбит/сек
Каналы : 2 канала
Расположение каналов : Front: L R
Частота : 48,0 КГц
Битовая глубина : 16 бит
Метод сжатия : С потерями
Размер потока : 359 Мбайт (18%)
Заголовок : Очищенный!
Язык : Russian
Default : Да
Forced : Нет
Аудио #2
Идентификатор : 3
Формат : AC-3
Формат/Информация : Audio Coding 3
Расширение режима : CM (complete main)
Идентификатор кодека : A_AC3
Продолжительность : 2 ч. 10 м.
Вид битрейта : Постоянный
Битрейт : 128 Кбит/сек
Каналы : 2 канала
Расположение каналов : Front: L R
Частота : 48,0 КГц
Битовая глубина : 16 бит
Метод сжатия : С потерями
Размер потока : 120 Мбайт (6%)
Язык : English
Default : Нет
Forced : Нет Семпл Скриншоты

Rutor

Last Downloads: yuka mihara 柚木 ティナ 柚木提娜 rio tina yuzuki 無碼 star wars o imperio contra ataca pt piano club colore アトリエさくら iris fsx