Give the life to this torrent: Fences.2016.DVDScr.XVID.AC3.HQ.Hive-CM8! After your Download, don't forget to Seed!

"Fences.2016.DVDScr.XVID.AC3.HQ.Hive-CM8"

Hash: 1ac03a2071b2d9faa6998bbae3cf0ad92f902bf8

Size: 1.8 GB
Age: 17/01/2017
Files: 4
Seeds: 8
Leeches: 0
Verified: no
Downloads: 44
We searched for this here: Ahashare, Thepiratebay, Yourbittorrent, Torrentbit, GlodlsTo, Limetorrents, Torrentroom
Torrent description Torrent found on:
http://www.imdb.com/title/tt2671706/
A working-class African-American father tries to raise his family in the 1950s, while coming to terms with the events of his life.
Director: Denzel Washington
Writers: August Wilson (screenplay), August Wilson (based upon his play "Fences"
Stars: Denzel Washington, Viola Davis, Stephen Henderson
Genres: Drama
Country: USA
Language: English
Fences.2016.DVDScr.XVID.AC3.HQ.Hive-CM8
Thx Hive
CM8 Doing It Right The First Time
Source: DVD-R9 Thanks to DRs
Notes:
Another Superior HQ release, free for the public now.
This one is the proper, yes from full source not from the one out there
Encode:
Quality was brilliant, fixed rgb and added a bit sharpness
removed all watermarks from video and audio, safety first.
enjoy
Video: 720x304 @bitrate ~1700 2pass
Audio: English AC3 5.1
Sample: yes included
PS: star wars anyone? animation for kids?
http://www.imdb.com/title/tt2671706/
General
Complete name : Fences.2016.DVDScr.XVID.AC3.HQ.Hive-CM8.avi
Format : AVI
Format/Info : Audio Video Interleave
File size : 1.82 GiB
Duration : 2h 18mn
Overall bit rate : 1 875 Kbps
Writing application : Nandub v1.0rc2
Writing library : Nandub build 1853/release
Video
ID : 0
Format : MPEG-4 Visual
Format profile : Advanced [email protected]
Format settings, BVOP : 2
Format settings, QPel : Yes
Format settings, GMC : No warppoints
Format settings, Matrix : Default (H.263)
Muxing mode : Packed bitstream
Codec ID : XVID
Codec ID/Hint : XviD
Duration : 2h 18mn
Bit rate : 1 610 Kbps
Width : 720 pixels
Height : 304 pixels
Display aspect ratio : 2.35:1
Frame rate : 23.976 fps
Color space : YUV
Chroma subsampling : 4:2:0
Bit depth : 8 bits
Scan type : Progressive
Compression mode : Lossy
Bits/(Pixel*Frame) : 0.307
Stream size : 1.56 GiB (86%)
Writing library : XviD 1.2.1 (UTC 2008-12-04)
Audio
ID : 1
Format : AC-3
Format/Info : Audio Coding 3
Mode extension : CM (complete main)
Format settings, Endianness : Big
Codec ID : 2000
Duration : 2h 18mn
Bit rate mode : Constant
Bit rate : 256 Kbps
Channel(s) : 6 channels
Channel positions : Front: L C R, Side: L R, LFE
Sampling rate : 48.0 KHz
Bit depth : 16 bits
Compression mode : Lossy
Delay relative to video : 5ms
Stream size : 254 MiB (14%)
Alignment : Split accross interleaves
Interleave, duration : 42 ms (1.00 video frame)
Interleave, preload duration : 500 ms

Ahashare

http://extraimage.net/image/2R7i
http://www.imdb.com/title/tt2671706/
A working-class African-American father tries to raise his family in the 1950s, while coming to terms with the events of his life.
Director: Denzel Washington
Writers: August Wilson (screenplay), August Wilson (based upon his play "Fences")
Stars: Denzel Washington, Viola Davis, Stephen Henderson
Genres: Drama
Country: USA
Language: English
Fences.2016.DVDScr.XVID.AC3.HQ.Hive-CM8
Thx Hive
CM8 Doing It Right The First Time
Source: DVD-R9 Thanks to DRs
Notes:
Another Superior HQ release, free for the public now.
This one is the proper, yes from full source not from the one out there
Encode:
Quality was brilliant, fixed rgb and added a bit sharpness
removed all watermarks from video and audio, safety first.
enjoy
Video: 720x304 @bitrate ~1700 2pass
Audio: English AC3 5.1
Sample: yes included
PS: star wars anyone? animation for kids?
http://extraimage.net/image/2R7d
http://extraimage.net/image/2R7I
http://extraimage.net/image/2R7h
http://extraimage.net/image/2R7b
http://extraimage.net/image/2R73

Thepiratebay

http://www.imdb.com/title/tt2671706/ A working-class African-American father tries to raise his family in the 1950s, while coming to terms with the events of his life. Director: Denzel Washington Writers: August Wilson (screenplay), August Wilson (based upon his play "Fences") Stars: Denzel Washington, Viola Davis, Stephen Henderson Genres: Drama Country: USA Language: English Fences.2016.DVDScr.XVID.AC3.HQ.Hive-CM8 Thx Hive CM8 Doing It Right The First Time Source: DVD-R9 Thanks to DRs Notes: Another Superior HQ release, free for the public now. This one is the proper, yes from full source not from the one out there Encode: Quality was brilliant, fixed rgb and added a bit sharpness removed all watermarks from video and audio, safety first. enjoy Video: 720x304 @bitrate ~1700 2pass Audio: English AC3 5.1 Sample: yes included PS: star wars anyone? animation for kids? http://www.imdb.com/title/tt2671706/ General Complete name : Fences.2016.DVDScr.XVID.AC3.HQ.Hive-CM8.avi Format : AVI Format/Info : Audio Video Interleave File size : 1.82 GiB Duration : 2h 18mn Overall bit rate : 1 875 Kbps Writing application : Nandub v1.0rc2 Writing library : Nandub build 1853/release Video ID : 0 Format : MPEG-4 Visual Format profile : Advanced /* */ Format settings, BVOP : 2 Format settings, QPel : Yes Format settings, GMC : No warppoints Format settings, Matrix : Default (H.263) Muxing mode : Packed bitstream Codec ID : XVID Codec ID/Hint : XviD Duration : 2h 18mn Bit rate : 1 610 Kbps Width : 720 pixels Height : 304 pixels Display aspect ratio : 2.35:1 Frame rate : 23.976 fps Color space : YUV Chroma subsampling : 4:2:0 Bit depth : 8 bits Scan type : Progressive Compression mode : Lossy Bits/(Pixel*Frame) : 0.307 Stream size : 1.56 GiB (86%) Writing library : XviD 1.2.1 (UTC 2008-12-04) Audio ID : 1 Format : AC-3 Format/Info : Audio Coding 3 Mode extension : CM (complete main) Format settings, Endianness : Big Codec ID : 2000 Duration : 2h 18mn Bit rate mode : Constant Bit rate : 256 Kbps Channel(s) : 6 channels Channel positions : Front: L C R, Side: L R, LFE Sampling rate : 48.0 KHz Bit depth : 16 bits Compression mode : Lossy Delay relative to video : 5ms Stream size : 254 MiB (14%) Alignment : Split accross interleaves Interleave, duration : 42 ms (1.00 video frame) Interleave, preload duration : 500 ms

Torrentbit

Your Internet Provider can track your torrent activity! Hide your IP address with a VPN. We recommend Trust.Zone VPNOrigin from extratorrent

GlodlsTo

Last Downloads: prokovief piano concerto activator windows forever xv 918 the promise the avengers age of ultron 2015 euskal jaia eguna 2009 iraila 3