Give the life to this torrent: Gold.2016.DVDScr.XVID.AC3.HQ.Hive-CM8! After your Download, don't forget to Seed!

"Gold.2016.DVDScr.XVID.AC3.HQ.Hive-CM8"

Hash: 1c25e999138b5a14300dc719c3d1e52b1003e355

Size: 1.7 GB
Age: 10/02/2017
Files: 4
Seeds: 414
Leeches: 35
Verified: no
Downloads: 29
We searched for this here: Yourbittorrent, Torrentbit, GlodlsTo, Limetorrents, Seedpeer, Thepiratebay, Torrentroom
Torrent description Torrent found on:
http://www.imdb.com/title/tt1800302/ Kenny Wells, a prospector desperate for a lucky break, teams up with a similarly eager geologist and sets off on a journey to find gold in the uncharted jungle of Indonesia. Director: Stephen Gaghan Writers: Patrick Massett, John Zinman Stars: Matthew McConaughey, Edgar Ramírez, Bryce Dallas Howard Genres: Adventure | Drama | Thriller Country: USA Gold.2016.DVDScr.XVID.AC3.HQ.Hive-CM8 Thx Hive CM8 Doing It Right The First Time Source: Screener Thanks m8 Notes: another quality release, i think this is the last one, same as founder delayed cine-date + 2 weeks so that the movie has a fair chance to play in the budget. have a good one, cheers Encode: Quality was nice, fixed rgb and brightness. removed all watermarks from video and audio, safety first. enjoy Video: 720x304 @bitrate 1700 2pass Audio: English AC3 Stereo Sample: yes included http://www.imdb.com/title/tt1800302/ General Complete name : Gold.2016.DVDScr.XVID.AC3.HQ.Hive-CM8.avi Format : AVI Format/Info : Audio Video Interleave File size : 1.71 GiB Duration : 2h 0mn Overall bit rate : 2 042 Kbps Writing application : Nandub v1.0rc2 Writing library : Nandub build 1853/release Video ID : 0 Format : MPEG-4 Visual Format profile : Advanced [email protected] Format settings, BVOP : 2 Format settings, QPel : Yes Format settings, GMC : No warppoints Format settings, Matrix : Default (H.263) Muxing mode : Packed bitstream Codec ID : XVID Codec ID/Hint : XviD Duration : 2h 0mn Bit rate : 1 774 Kbps Width : 720 pixels Height : 304 pixels Display aspect ratio : 2.35:1 Frame rate : 29.970 fps Color space : YUV Chroma subsampling : 4:2:0 Bit depth : 8 bits Scan type : Progressive Compression mode : Lossy Bits/(Pixel*Frame) : 0.270 Stream size : 1.49 GiB (87%) Writing library : XviD 1.2.1 (UTC 2008-12-04) Audio ID : 1 Format : AC-3 Format/Info : Audio Coding 3 Mode extension : CM (complete main) Format settings, Endianness : Big Codec ID : 2000 Duration : 2h 0mn Bit rate mode : Constant Bit rate : 256 Kbps Channel(s) : 2 channels Channel positions : Front: L R Sampling rate : 48.0 KHz Bit depth : 16 bits Compression mode : Lossy Delay relative to video : 26ms Stream size : 220 MiB (13%) Alignment : Split accross interleaves Interleave, duration : 33 ms (1.00 video frame) Interleave, preload duration : 500 ms

Torrentbit

Your Internet Provider can track your torrent activity! Hide your IP address with a VPN. We recommend Trust.Zone VPNOrigin from extratorrent

GlodlsTo

http://extraimage.net/image/2U70
http://www.imdb.com/title/tt1800302/
Kenny Wells, a prospector desperate for a lucky break, teams up with a similarly eager geologist and sets off on a journey to find gold in the uncharted jungle of Indonesia.
Director: Stephen Gaghan
Writers: Patrick Massett, John Zinman
Stars: Matthew McConaughey, Edgar Ramírez, Bryce Dallas Howard
Genres: Adventure | Drama | Thriller
Country: USA
Gold.2016.DVDScr.XVID.AC3.HQ.Hive-CM8
Thx Hive
CM8 Doing It Right The First Time
Source: Screener Thanks m8
Notes:
another quality release, i think this is the last one, same as founder delayed cine-date + 2 weeks so that the movie has a fair chance to play in the budget. have a good one, cheers
Encode:
Quality was nice, fixed rgb and brightness.
removed all watermarks from video and audio, safety first.
enjoy
Video: 720x304 @bitrate 1700 2pass
Audio: English AC3 Stereo
Sample: yes included
http://extraimage.net/image/2U7K
http://extraimage.net/image/2U7J
http://extraimage.net/image/2U7Z
http://extraimage.net/image/2U7e
http://extraimage.net/image/2U74

Thepiratebay

Last Downloads: forza horizon 2 ita airac 1708 ls outside 地獄調教の餌食となった女装愛奴 funny video 母乳類50部合集