Give the life to this torrent: Lumekuninganna ja Igavene Talv (Frozen) eesti keeles! After your Download, don't forget to Seed!

"Lumekuninganna ja Igavene Talv (Frozen) eesti keeles"

Hash: 655fe4cee498214026695ca0389c5a14aec6402c

Size: 1.1 GB
Age: 01/04/2014
Files: 1
Seeds: 17
Leeches: 2
Verified: no
Downloads: 201
We searched for this here: Torrentdownloadz, Thepiratebay, Seedpeer, Yourbittorrent, Bittorrentz, Torrentfunk, Monova
Torrent description Torrent found on:
Video ID : 0 Format : MPEG-4 Visual Format profile : Advanced [email protected] Format settings, BVOP : 2 Format settings, QPel : No Format settings, GMC : No warppoints Format settings, Matrix : Default (H.263) Codec ID : XVID Codec ID/Hint : XviD Duration : 1h 38mn Bit rate : 1 207 Kbps Width : 720 pixels Height : 320 pixels Display aspect ratio : 2.25:1 Frame rate : 25.000 fps Color space : YUV Chroma subsampling : 4:2:0 Bit depth : 8 bits Scan type : Progressive Compression mode : Lossy Bits/(Pixel*Frame) : 0.210 Stream size : 846 MiB (75%) Writing library : XviD 73 Audio ID : 1 Format : AC-3 Format/Info : Audio Coding 3 Mode extension : CM (complete main) Format settings, Endianness : Big Codec ID : 2000 Duration : 1h 38mn Bit rate mode : Constant Bit rate : 384 Kbps Channel(s) : 6 channels Channel positions : Front: L C R, Side: L R, LFE Sampling rate : 48.0 KHz Bit depth : 16 bits Compression mode : Lossy Stream size : 269 MiB (24%) Alignment : Split accross interleaves Interleave, duration : 40 ms (1.00 video frame) Interleave, preload duration : 500 ms Language : estonian only

Torrentdownloadz

Video
ID : 0
Format : MPEG-4 Visual
Format profile : Advanced [email protected]
Format settings, BVOP : 2
Format settings, QPel : No
Format settings, GMC : No warppoints
Format settings, Matrix : Default (H.263)
Codec ID : XVID
Codec ID/Hint : XviD
Duration : 1h 38mn
Bit rate : 1 207 Kbps
Width : 720 pixels
Height : 320 pixels
Display aspect ratio : 2.25:1
Frame rate : 25.000 fps
Color space : YUV
Chroma subsampling : 4:2:0
Bit depth : 8 bits
Scan type : Progressive
Compression mode : Lossy
Bits/(Pixel*Frame) : 0.210
Stream size : 846 MiB (75%)
Writing library : XviD 73
Audio
ID : 1
Format : AC-3
Format/Info : Audio Coding 3
Mode extension : CM (complete main)
Format settings, Endianness : Big
Codec ID : 2000
Duration : 1h 38mn
Bit rate mode : Constant
Bit rate : 384 Kbps
Channel(s) : 6 channels
Channel positions : Front: L C R, Side: L R, LFE
Sampling rate : 48.0 KHz
Bit depth : 16 bits
Compression mode : Lossy
Stream size : 269 MiB (24%)
Alignment : Split accross interleaves
Interleave, duration : 40 ms (1.00 video frame)
Interleave, preload duration : 500 ms
Language : estonian only

Thepiratebay

Thanks for downloading Lumekuninganna ja Igavene Talv (Frozen) eesti keeles, please keep seeding and give this torrent life!

Yourbittorrent

Last Downloads: 백지영 섹스 비디오 fansadox the house of tears by ted owen tropical candy kincaid austin aunties desi trance 90 s