Give the life to this torrent: Мумия / The Mummy (2017) WEBRip 1080р | L! After your Download, don't forget to Seed!

"Мумия / The Mummy (2017) WEBRip 1080р | L"

Hash: cd9a1dab81549ecff315b2d27f708965dcfbaa3b

Size: 4.1 GB
Age: 13/07/2017
Files: 1
Seeds: 2969
Leeches: 204
Verified: no
Downloads: 12
We searched for this here: Rutor
Torrent description Torrent found on:
Информация о фильме Название: Мумия Оригинальное название: The Mummy Год выхода: 2017 Жанр: Фэнтези, боевик, триллер, приключения Режиссер: Алекс Куртцман В ролях: Том Круз, Рассел Кроу, Аннабелль Уоллис, София Бутелла, Джейк Джонсон, Кортни Б. Вэнс, Марван Кензари, Саймон Атертон, Стивен Томпсон, Джеймс Арама О фильме: Посреди безжалостной пустыни в величественном саркофаге погребена дочь египетского фараона, но настанет день, и она явится в наш мир вернуть себе то, что принадлежит ей по праву. Отныне миром правят боги и монстры. Страна: США Студия: Perfect World Pictures, Sean Daniel Company, Secret Hideout, Universal Pictures Продолжительность: 01:51:32 Перевод: Любительское, многоголосое ~ "Синема УС" Файл Кодек: MPEG-4 AVC Качество: WEBRip 1080р Видео: 1920x800, 4937kb/s, 30.000fps Звук: 192kb/s, 2ch, 48000kHz, AC3 Субтитры: Вшитые корейские субтитры. ПРИСУТСТВУЕТ РЕКЛАМА MI Общее
Уникальный идентификатор : 237919779136349823162807930872420481619 (0xB2FDAEC56E86E682AF69287E2C59BA53)
Полное имя : G:MOVIESМумия 2017 .mkv
Формат : Matroska
Версия формата : Version 2
Размер файла : 4,08 Гбайт
Продолжительность : 1 ч. 51 м.
Режим общего битрейта : Переменный
Общий поток : 5233 Кбит/сек
Дата кодирования : UTC 2017-07-13 08:32:23
Программа кодирования : mkvmerge v8.3.0 ('Over the Horizon') 64bit
Библиотека кодирования : libebml v1.3.1 + libmatroska v1.4.2
DURATION : 01:51:32.633000000
NUMBER_OF_FRAMES : 200779
NUMBER_OF_BYTES : 4215557508
_STATISTICS_WRITING_APP : mkvmerge v8.3.0 ('Over the Horizon') 64bit
_STATISTICS_WRITING_DATE_UTC : 2017-07-13 08:32:23
_STATISTICS_TAGS : BPS DURATION NUMBER_OF_FRAMES NUMBER_OF_BYTES
Видео
Идентификатор : 1
Формат : AVC
Формат/Информация : Advanced Video Codec
Профиль формата : [email protected]
Параметр CABAC формата : Да
Параметр ReFrames формата : 5 кадров
Идентификатор кодека : V_MPEG4/ISO/AVC
Продолжительность : 1 ч. 51 м.
Вид битрейта : Переменный
Битрейт : 4937 Кбит/сек
Максимальный битрейт : 5600 Кбит/сек
Ширина : 1920 пикселей
Высота : 800 пикселей
Соотношение сторон : 2,40:1
Режим частоты кадров : Постоянный
Частота кадров : 30,000 кадров/сек
Стандарт вещания : Component
Цветовое пространство : YUV
Субдискретизация насыщенности : 4:2:0
Битовая глубина : 8 бит
Тип развёртки : Прогрессивная
Бит/(Пиксели*Кадры) : 0.107
Размер потока : 3,85 Гбайт (94%)
Default : Да
Forced : Нет
Основные цвета : BT.709
Характеристики трансфера : BT.709
Коэффициенты матрицы : BT.709
Аудио
Идентификатор : 2
Формат : AC-3
Формат/Информация : Audio Coding 3
Расширение режима : CM (complete main)
Параметр Endianness формата : Big
Идентификатор кодека : A_AC3
Продолжительность : 1 ч. 51 м.
Вид битрейта : Постоянный
Битрейт : 192 Кбит/сек
Каналы : 2 канала
Расположение каналов : Front: L R
Частота : 48,0 КГц
Битовая глубина : 16 бит
Метод сжатия : С потерями
Размер потока : 153 Мбайт (4%)
Default : Да
Forced : Нет Скриншоты

Rutor

Last Downloads: asfb 114 nicole medina rmdb 395 atp world tour 2010 finals catia v5r19 nodelock license 259luxu 073